<?xml version="1.0" standalone="no"?>
<!DOCTYPE svg PUBLIC "-//W3C//DTD SVG 1.1//EN" "http://www.w3.org/Graphics/SVG/1.1/DTD/svg11.dtd" >
<svg xmlns="http://www.w3.org/2000/svg">
<metadata>Generated by IcoMoon</metadata>
<defs>
<font id="able" horiz-adv-x="1024">
<font-face units-per-em="1024" ascent="960" descent="-64" />
<missing-glyph horiz-adv-x="1024" />
<glyph unicode="&#x20;" horiz-adv-x="512" d="" />
<glyph unicode="&#xe600;" glyph-name="pipe" d="M519.68 963.64h31.922c3.556 0 6.48-5.85 6.48-12.958v-998.076c0-7.11-2.926-12.96-6.48-12.96h-63.844c-3.552 0-6.476 5.85-6.476 12.962v998.076c0 7.108 2.926 12.958 6.476 12.958h31.922z" />
<glyph unicode="&#xe601;" glyph-name="captions" d="M1.704 787.268h1020.594v-663.324h-1020.594v663.324zM926.594 458.518c-1.29 115.9-6.326 166.428-38.020 202.118-5.712 7.726-16.462 12.080-25.37 17.6-31.020 19.746-177.398 26.918-347.24 26.918-169.844 0-323.226-7.174-353.63-26.918-9.46-5.52-20.27-9.872-26.598-17.6-31.082-35.688-35.504-86.218-37.408-202.118 1.904-115.962 6.326-166.49 37.408-202.178 6.326-8.22 17.138-12.080 26.598-17.6 30.404-20.298 183.784-26.922 353.63-28.024 169.842 1.102 316.22 7.726 347.24 28.024 8.908 5.518 19.658 9.38 25.37 17.6 31.698 35.688 36.73 86.216 38.020 202.178v0 0zM496.072 497.606c-8.592 90.642-64.17 144.022-163.616 144.022-90.796 0-162.206-71.030-162.206-185.204 0-114.662 65.088-186.182 172.634-186.182 85.826 0 145.948 54.85 155.394 146.042h-102.574c-4.048-33.83-20.306-59.814-54.66-59.814-54.23 0-64.168 46.574-64.168 96.034 0 68.088 22.64 102.898 60.12 102.898 33.432 0 54.66-21.082 57.85-57.794h101.224zM850.292 497.606c-8.526 90.642-64.108 144.022-163.554 144.022-90.794 0-162.206-71.030-162.206-185.204 0-114.662 65.090-186.182 172.632-186.182 85.826 0 145.948 54.85 155.394 146.042h-102.574c-4.048-33.83-20.306-59.814-54.66-59.814-54.23 0-64.168 46.574-64.168 96.034 0 68.088 22.576 102.898 60.12 102.898 33.432 0 54.66-21.082 57.85-57.794h101.164z" />
<glyph unicode="&#xe602;" glyph-name="descriptions" d="M902.294 790h-79.626c89.818-88.89 141.452-210.252 141.452-336.484 0-112.16-40.358-219.452-112.102-304.282h75.96c63.864 87.268 99.598 194.154 99.598 304.282-0.002 123.796-45.386 243.4-125.284 336.484v0zM739.784 790h-79.356c89.546-88.89 141.178-210.252 141.178-336.484 0-112.16-40.358-219.452-111.964-304.282h75.552c64.408 87.268 99.874 194.154 99.874 304.282-0.004 123.796-45.254 243.4-125.284 336.484v0zM576.998 790h-78.95c89.682-88.89 140.908-210.252 140.908-336.484 0-112.16-40.492-219.452-111.692-304.282h75.412c64.408 87.268 99.6 194.154 99.6 304.282 0.004 123.796-44.836 243.4-125.276 336.484v0zM524.274 468.128c0-177.104-144.714-320.79-322.718-320.79v-0.54h-197.98v642.796h199.474c178.004 0 321.224-143.686 321.224-321.464v0zM355.51 468.128c0 94.302-76.366 170.88-171.482 170.88h-44.842v-342.3h44.842c95.116 0 171.482 76.71 171.482 171.42v0z" />
<glyph unicode="&#xe603;" glyph-name="rewind" d="M576 812.8v-320l320 320v-704l-320 320v-320l-352 352z" />
<glyph unicode="&#xe604;" glyph-name="forward" d="M512 108.8v320l-320-320v704l320-320v320l352-352z" />
<glyph unicode="&#xe605;" glyph-name="volume-medium" d="M719.53 141.27c-12.286 0-24.568 4.686-33.942 14.058-18.744 18.744-18.744 49.136 0 67.882 131.006 131.006 131.006 344.17 0 475.176-18.744 18.746-18.744 49.138 0 67.882 18.744 18.742 49.138 18.744 67.882 0 81.594-81.592 126.53-190.076 126.53-305.468s-44.936-223.876-126.53-305.47c-9.372-9.374-21.656-14.060-33.94-14.060zM549.020 231.78c-12.286 0-24.568 4.686-33.942 14.058-18.746 18.746-18.746 49.136 0 67.882 81.1 81.1 81.1 213.058 0 294.156-18.746 18.746-18.746 49.138 0 67.882s49.136 18.744 67.882 0c118.53-118.53 118.53-311.392 0-429.922-9.372-9.37-21.656-14.056-33.94-14.056zM401.332 894.132c25.668 25.668 46.668 16.968 46.668-19.332v-828c0-36.3-21-44.998-46.668-19.33l-241.332 241.33h-160v384h160l241.332 241.332z" />
<glyph unicode="&#xe606;" glyph-name="volume-mute" d="M401.332 894.132c25.668 25.668 46.668 16.968 46.668-19.332v-828c0-36.3-21-44.998-46.668-19.33l-241.332 241.33h-160v384h160l241.332 241.332zM960 353.652v-84.852h-84.852l-107.148 107.148-107.148-107.148h-84.852v84.852l107.148 107.148-107.148 107.148v84.852h84.852l107.148-107.148 107.148 107.148h84.852v-84.852l-107.148-107.148z" />
<glyph unicode="&#xe607;" glyph-name="volume-up" d="M428.164 908.882c11.976 0 19.836-11.878 19.838-34.082v-828c0-22.206-7.856-34.082-19.836-34.082-7.604 0-16.868 4.788-26.834 14.752l-241.332 241.33h-160v384h160l241.332 241.332c9.966 9.966 19.228 14.75 26.832 14.75zM1024 396.8h-192v-192h-128v192h-192v128h192v192h128v-192h192z" />
<glyph unicode="&#xe608;" glyph-name="volume-down" d="M428.164 908.882c11.976 0 19.836-11.878 19.838-34.082v-828c0-22.206-7.856-34.082-19.836-34.082-7.604 0-16.868 4.788-26.834 14.752l-241.332 241.33h-160v384h160l241.332 241.332c9.966 9.966 19.228 14.75 26.832 14.75zM512 524.8h512v-128h-512z" />
<glyph unicode="&#xe609;" glyph-name="chapters" d="M256 844.8v-896l320 320 320-320v896zM768 972.8h-640v-896l64 64v768h576z" />
<glyph unicode="&#xe60a;" glyph-name="sign" d="M560.85 445.070c19.35-15.456 29.15-61.566 28.898-61.062 35.682-11.308 58.174-34.93 58.174-34.93 54.78 30.53 56.038 16.71 79.786 34.93 19.6 13.446 18.722 17.59 29.024 53.65 9.55 29.274-24.376 26.512-52.27 79.786-48.626-18.344-74.884-10.050-91.344-8.544-7.412 1.004-6.158-28.774-52.27-63.828zM737.76 92.382c-6.786-9.298-10.052-11.182-18.596-23.246-14.322-18.47 3.894-46.364 12.942-41.966 10.554 3.894 17.462 25.004 29.024 31.914 5.904 3.14 21.61 26.26 36.312 41.966 10.804 12.188 18.596 17.59 28.898 30.406 17.462 21.61 21.11 38.070 36.312 61.062 9.424 12.062 15.956 15.706 24.626 30.406 45.36 85.942 32.164 124.514 75.514 185.83 13.318 18.092 28.27 22.616 49.378 33.422 19.6 142.982-45.482 223.020-44.98 223.27-54.654-31.914-84.182-44.98-140.848-41.966-21.36 0.252-32.544 9.298-53.65 7.412-19.726-0.752-29.778-8.166-49.378-14.826-30.154-9.298-46.614-17.59-78.278-27.39-20.102-5.654-32.918-5.904-53.776-13.068-17.842-7.538-9.298-1.506-21.862-15.956-16.208-17.842-12.188-31.914-27.39-62.572-18.972-40.206-16.71-45.61-5.904-50.51-7.162-20.606-8.922-34.428-7.162-56.666 2.010-16.962-5.152-28.774 13.068-42.218 24.752-18.47 76.77-61.692 89.962-62.32 19.978 0.63 77.9-1.506 107.3 18.846 6.658 4.146 8.544 8.294 2.89-7.412-1.13-1.884-73.376-58.174-81.168-57.924-91.846-2.89-61.062-8.042-66.718-5.904-4.65 0-48.876 54.028-75.638 34.93-10.050-6.158-14.702-12.062-18.596-23.12 3.392-7.038 19.6-18.346 34.552-27.642 21.61-13.822 23.62-28.27 45.106-33.422 26.26-5.904 54.278-2.010 70.99-4.146 6.408-1.76 64.332 15.202 100.39 34.552 33.296 17.214-45.986-33.172-65.336-57.924-58.424-18.346-41.966-19.098-69.734-24.752-25.756-5.904-24.5-4.398-42.092-10.052-18.22-4.398-33.172-29.274-15.956-42.218 10.302-8.544 42.342 3.392 74.004 4.398 14.072 0.252 71.24 26.51 84.182 33.422 32.416 17.338 56.288 41.462 75.388 55.158 26.51 18.47-29.904-50.76-53.776-79.786zM453.372 471.078c-19.348 15.956-29.15 62.068-28.898 62.32-35.682 10.554-58.176 34.176-58.176 33.422-54.782-29.778-56.288-15.956-79.786-33.422-19.85-14.198-18.722-18.596-29.024-53.524-9.55-30.406 24.122-27.39 52.27-79.91 48.626 17.59 74.884 9.298 91.344 7.288 7.412-0.502 6.156 29.274 52.27 63.826zM276.464 823.762c6.786 9.798 10.050 11.686 18.846 23.246 13.822 18.974-4.146 46.866-12.94 43.474-10.806-4.9-17.716-26.010-30.658-33.422-4.774-2.64-20.48-25.758-34.93-41.966-10.806-11.686-18.594-17.088-28.898-30.658-17.716-20.858-21.11-37.318-36.312-59.43-9.424-13.194-16.208-16.586-24.626-31.79-45.358-85.438-32.29-124.012-75.514-184.32-13.318-19.476-28.27-23.62-49.378-34.93-19.6-142.734 45.232-222.516 44.982-222.016 54.656 31.16 83.93 44.1 140.848 42.218 21.36-1.256 32.544-10.302 53.652-8.922 19.728 1.256 29.778 8.668 49.378 14.576 30.154 10.052 46.614 18.346 76.77 27.642 21.61 6.158 34.428 6.408 55.284 14.576 17.842 6.534 9.298 0.502 21.862 14.45 15.956 18.346 12.188 32.416 26.010 62.32 20.356 40.96 18.094 46.364 7.286 50.76 6.912 21.108 8.922 34.678 7.162 56.666-2.262 17.214 5.152 29.274-13.068 41.966-24.752 19.224-76.77 62.446-89.71 62.572-20.228-0.126-78.152 2.010-107.552-17.34-6.658-5.152-8.544-9.298-2.89 5.654 1.13 2.64 73.378 58.802 81.168 59.556 91.846 2.010 61.062 7.162 66.718 4.524 4.65 0.378 48.878-53.524 75.638-34.93 9.798 6.658 14.702 12.564 18.846 23.118-3.642 7.538-19.85 18.846-34.802 27.518-21.61 14.45-23.746 28.898-45.106 33.548-26.26 6.406-54.528 2.512-70.99 5.654-6.406 0.752-64.332-16.208-100.14-34.804-33.798-17.968 45.734 32.292 65.334 58.176 58.176 17.34 41.462 18.092 69.608 24.5 25.632 5.152 24.376 3.644 41.966 8.794 17.968 4.9 33.17 29.526 15.956 43.474-10.554 7.79-42.342-4.146-73.752-4.398-14.322-1.004-71.492-27.266-84.432-34.678-32.416-16.836-56.288-40.96-75.388-53.65-26.764-19.476 29.904 49.504 53.776 78.278z" />
<glyph unicode="&#xe60b;" glyph-name="volume-loud" horiz-adv-x="1088" d="M890.040 50.76c-12.286 0-24.568 4.686-33.942 14.058-18.744 18.746-18.744 49.136 0 67.882 87.638 87.642 135.904 204.16 135.904 328.1 0 123.938-48.266 240.458-135.904 328.098-18.744 18.746-18.744 49.138 0 67.882s49.138 18.744 67.882 0c105.77-105.772 164.022-246.4 164.022-395.98s-58.252-290.208-164.022-395.98c-9.372-9.374-21.656-14.060-33.94-14.060zM719.53 141.27c-12.286 0-24.568 4.686-33.942 14.058-18.744 18.744-18.744 49.136 0 67.882 131.006 131.006 131.006 344.17 0 475.176-18.744 18.746-18.744 49.138 0 67.882 18.744 18.742 49.138 18.744 67.882 0 81.594-81.592 126.53-190.076 126.53-305.468s-44.936-223.876-126.53-305.47c-9.372-9.374-21.656-14.060-33.94-14.060zM549.020 231.78c-12.286 0-24.568 4.686-33.942 14.058-18.746 18.746-18.746 49.136 0 67.882 81.1 81.1 81.1 213.058 0 294.156-18.746 18.746-18.746 49.138 0 67.882s49.136 18.744 67.882 0c118.53-118.53 118.53-311.392 0-429.922-9.372-9.37-21.656-14.056-33.94-14.056zM401.332 894.132c25.668 25.668 46.668 16.968 46.668-19.332v-828c0-36.3-21-44.998-46.668-19.33l-241.332 241.33h-160v384h160l241.332 241.332z" />
<glyph unicode="&#xe60c;" glyph-name="volume-soft" d="M549.020 231.78c-12.286 0-24.568 4.686-33.942 14.058-18.746 18.746-18.746 49.136 0 67.882 81.1 81.1 81.1 213.058 0 294.156-18.746 18.746-18.746 49.138 0 67.882s49.136 18.744 67.882 0c118.53-118.53 118.53-311.392 0-429.922-9.372-9.37-21.656-14.056-33.94-14.056zM401.332 894.132c25.668 25.668 46.668 16.968 46.668-19.332v-828c0-36.3-21-44.998-46.668-19.33l-241.332 241.33h-160v384h160l241.332 241.332z" />
<glyph unicode="&#xe60d;" glyph-name="preferences" d="M933.79 362.55c-53.726 93.054-21.416 212.304 72.152 266.488l-100.626 174.292c-28.75-16.854-62.176-26.518-97.846-26.518-107.536 0-194.708 87.746-194.708 195.99h-201.258c0.266-33.41-8.074-67.282-25.958-98.252-53.724-93.056-173.156-124.702-266.862-70.758l-100.624-174.292c28.97-16.472 54.050-40.588 71.886-71.478 53.638-92.908 21.512-211.92-71.708-266.224l100.626-174.292c28.65 16.696 61.916 26.254 97.4 26.254 107.196 0 194.144-87.192 194.7-194.958h201.254c-0.086 33.074 8.272 66.57 25.966 97.218 53.636 92.906 172.776 124.594 266.414 71.012l100.626 174.29c-28.78 16.466-53.692 40.498-71.434 71.228zM512 253.468c-114.508 0-207.336 92.824-207.336 207.334 0 114.508 92.826 207.334 207.336 207.334s207.332-92.826 207.332-207.334c-0.002-114.51-92.824-207.334-207.332-207.334z" />
<glyph unicode="&#xe900;" glyph-name="restart" d="M921.6 563.2h-307.2l114.825 114.825c-58.025 58.022-135.168 89.977-217.225 89.977s-159.2-31.956-217.225-89.977c-58.022-58.025-89.977-135.168-89.977-217.225s31.956-159.2 89.977-217.225c58.025-58.022 135.168-89.977 217.225-89.977s159.2 31.956 217.225 89.977c4.844 4.842 9.488 9.833 13.964 14.937l77.056-67.426c-75.078-85.734-185.332-139.886-308.244-139.886-226.217 0-409.6 183.385-409.6 409.6s183.385 409.6 409.6 409.6c113.11 0 215.497-45.862 289.612-119.988l119.988 119.988v-307.2z" />
<glyph unicode="&#xe901;" glyph-name="previous" d="M256 76.8v768h128v-352l320 320v-704l-320 320v-352z" />
<glyph unicode="&#xe902;" glyph-name="next" d="M768 844.8v-768h-128v352l-320-320v704l320-320v352z" />
<glyph unicode="&#xe903;" glyph-name="ellipsis" d="M512.051 573.44c-62.208 0-112.691-50.432-112.691-112.64s50.483-112.64 112.691-112.64c62.208 0 112.589 50.432 112.589 112.64s-50.381 112.64-112.589 112.64zM153.651 573.44c-62.208 0-112.691-50.432-112.691-112.64s50.483-112.64 112.691-112.64c62.208 0 112.589 50.483 112.589 112.64s-50.381 112.64-112.589 112.64zM870.451 573.44c-62.208 0-112.691-50.432-112.691-112.64s50.483-112.64 112.691-112.64c62.208 0 112.589 50.432 112.589 112.64s-50.381 112.64-112.589 112.64z" />
<glyph unicode="&#xe904;" glyph-name="turtle" d="M881.231 775.877c-14.384 0.738-28.121-1.27-41.846-7.385-62.346-27.727-85.090-138.634-110.769-201.846-61.794-152.143-363.018-236.514-601.846-267.077-45.41-5.829-89.57-37.898-124.308-75.077 41.984 14.533 108.839 15.222 140.308-7.385 0.354-25.009-19.239-54.361-32-70.154-20.677-25.6-20.391-40.615 6.154-40.615 24.222 0 38.518-0.354 83.692 0 20.126 0.158 31.646 8.212 76.308 76.308 183.926-36.785 306.462 13.538 306.462 13.538s20.825-89.846 72.615-89.846h76.308c32.414 0 34.127 16.955 32 22.154-22.961 55.414-34.816 95.902-39.385 128-13.47 95.074 33.644 196.401 129.231 279.385 29.972-50.491 115.367-43.284 148.923 4.923 33.516 48.167 22.843 116.126-9.846 164.923-25.108 37.455-68.848 67.94-112 70.154zM420.923 734.031c-36.961 0.809-78.622-5.662-128-20.923-215.591-66.678-213.878-253.47-179.692-294.154 0 0-48.886-24.507-20.923-65.231 22.922-33.359 160.699-9.787 276.923 27.077s216.389 91.806 272 137.846c48.522 40.212 28.229 107.806-25.846 99.692-25.285 50.186-83.58 113.265-194.462 115.692zM964.923 667.569c16.62 0 29.538-12.918 29.538-29.538s-12.918-29.538-29.538-29.538c-16.62 0-29.538 12.918-29.538 29.538s12.918 29.538 29.538 29.538z" />
<glyph unicode="&#xe905;" glyph-name="rabbit" d="M553.846 972.8c-115.121 0-81.211-26.87-59.077-25.846 79.399 3.702 266.171-2.255 350.769-124.308 0 0-52.313 150.154-291.692 150.154zM539.077 933.415c-131.702 0-145.231-26.132-145.231-56.615 0-27.884 78.11-42.821 129.231-35.692 142.257 19.771 216.606 6.144 269.538-44.308-51.712-39.897-38.41-71.729-65.231-94.769-55.966-48.167-135.316 34.462-254.769 34.462-127.803 0-241.231-98.284-241.231-243.692-8.034 27.49-39.385 46.769-73.846 46.769-49.861 0-77.538-32.63-77.538-76.308 0-39.385 57.846-91.678 146.462-48 25.561-61.834 115.968-69.858 125.538-72.615 27.53-7.877 96-5.002 96-44.308 0-40.645-52.923-56.034-52.923-87.385 0-54.784 90.023-44.692 116.923-52.923 86.174-26.466 107.678-62.149 142.769-113.231 39.463-57.462 131.692-72.094 131.692-32 0 163.092-225.94 211.259-225.231 211.692 31.153 19.535 109.538 71.513 109.538 180.923 0 66.284-36.007 115.505-89.846 146.462 64.315-4.805 131.692-61.696 131.692-140.308 0-96.098-33.438-144.532-39.385-151.385 101.1 59.274 163.466 200.202 155.077 326.154 31.232-20.519 65.044-29.558 100.923-32 38.439-2.639 75.5 11.52 83.692 27.077 19.456 37.022 8.3 118.843-6.154 145.231-39.070 71.286-114.471 88.596-184.615 86.154-61.558 85.543-195.17 120.615-283.077 120.615zM70.154 815.262l-28.308-78.769h190.769c26.663 29.499 78.917 61.794 116.923 78.769h-279.385zM964.923 706.954c16.62 0 29.538-12.918 29.538-29.538s-12.918-29.538-29.538-29.538c-16.62 0-29.538 12.918-29.538 29.538s12.918 29.538 29.538 29.538zM28.308 697.108l-28.308-78.769h163.692c13.312 42.181 30.011 68.017 39.385 78.769h-174.769z" />
<glyph unicode="&#xf00d;" glyph-name="close" horiz-adv-x="806" d="M62.856 208.228q0 22.856 16 38.856l168 168-168 168q-16 16-16 38.856t16 38.856l77.714 77.714q16 16 38.856 16t38.856-16l168-168 168 168q16 16 38.856 16t38.856-16l77.714-77.714q16-16 16-38.856t-16-38.856l-168-168 168-168q16-16 16-38.856t-16-38.856l-77.714-77.714q-16-16-38.856-16t-38.856 16l-168 168-168-168q-16-16-38.856-16t-38.856 16l-77.714 77.714q-16 16-16 38.856z" />
<glyph unicode="&#xf04b;" glyph-name="play" horiz-adv-x="806" d="M0 31.086v841.144q0 14.856 9.43 20.572t22.57-1.714l758.856-421.714q13.144-7.428 13.144-17.714t-13.144-17.714l-758.856-421.714q-13.144-7.428-22.572-1.714t-9.43 20.572z" />
<glyph unicode="&#xf04c;" glyph-name="pause" d="M0 49.372v804.572q0 14.856 10.856 25.714t25.714 10.856h292.572q14.856 0 25.714-10.856t10.858-25.714v-804.572q0-14.856-10.856-25.714t-25.714-10.856h-292.572q-14.856 0-25.714 10.856t-10.856 25.714zM512 49.372v804.572q0 14.856 10.856 25.714t25.714 10.856h292.572q14.856 0 25.714-10.856t10.856-25.714v-804.572q0-14.856-10.856-25.714t-25.714-10.856h-292.572q-14.856 0-25.714 10.856t-10.856 25.714z" />
<glyph unicode="&#xf04d;" glyph-name="stop" d="M0 49.372v804.572q0 14.856 10.856 25.714t25.714 10.856h804.572q14.856 0 25.714-10.856t10.856-25.714v-804.572q0-14.856-10.856-25.714t-25.714-10.856h-804.572q-14.856 0-25.714 10.856t-10.856 25.714z" />
<glyph unicode="&#xf065;" glyph-name="fullscreen-expand" d="M0 49.372v256q0 14.856 10.856 25.714t25.714 10.856 25.714-10.856l82.286-82.286 189.714 189.714q5.714 5.714 13.144 5.714t13.144-5.714l65.144-65.144q5.714-5.714 5.714-13.144t-5.714-13.144l-189.714-189.714 82.286-82.286q10.856-10.856 10.856-25.714t-10.856-25.714-25.714-10.856h-256q-14.856 0-25.714 10.856t-10.856 25.714zM446.286 543.086q0 7.428 5.714 13.144l189.714 189.714-82.286 82.286q-10.856 10.856-10.856 25.714t10.856 25.714 25.714 10.856h256q14.856 0 25.714-10.856t10.856-25.714v-256q0-14.856-10.856-25.714t-25.714-10.856-25.714 10.856l-82.286 82.286-189.714-189.714q-5.714-5.714-13.144-5.714t-13.144 5.714l-65.144 65.144q-5.714 5.714-5.714 13.144z" />
<glyph unicode="&#xf066;" glyph-name="fullscreen-collapse" d="M7.43 104.228q0 7.428 5.714 13.144l189.714 189.714-82.286 82.286q-10.856 10.856-10.856 25.714t10.856 25.714 25.714 10.856h256q14.856 0 25.714-10.856t10.858-25.714v-256q0-14.856-10.856-25.714t-25.714-10.856-25.714 10.856l-82.286 82.286-189.714-189.714q-5.714-5.714-13.144-5.714t-13.144 5.714l-65.144 65.144q-5.714 5.714-5.714 13.144zM438.858 488.228v256q0 14.856 10.858 25.714t25.714 10.858 25.714-10.858l82.286-82.286 189.714 189.714q5.714 5.714 13.144 5.714t13.144-5.714l65.144-65.144q5.714-5.714 5.714-13.142t-5.714-13.144l-189.714-189.714 82.286-82.286q10.856-10.856 10.856-25.714t-10.856-25.714-25.714-10.856h-256q-14.856 0-25.714 10.856t-10.858 25.714z" />
<glyph unicode="&#xf0dd;" glyph-name="slower" horiz-adv-x="586" d="M0 597.944q0 14.856 10.856 25.714t25.714 10.856h512q14.856 0 25.714-10.856t10.856-25.714-10.856-25.714l-256-256q-10.856-10.856-25.714-10.856t-25.714 10.856l-256 256q-10.856 10.856-10.856 25.714z" />
<glyph unicode="&#xf0de;" glyph-name="faster" horiz-adv-x="586" d="M0 337.372q0 14.858 10.856 25.714l256 256q10.856 10.856 25.714 10.856t25.714-10.856l256-256q10.856-10.856 10.856-25.714t-10.856-25.714-25.714-10.856h-512q-14.856 0-25.714 10.856t-10.856 25.714z" />
<glyph unicode="&#xf128;" glyph-name="help" horiz-adv-x="586" d="M29.544 649.372q-1.43 8.572 3.144 16 91.43 152 265.142 152 45.714 0 92-17.714t83.428-47.43 60.572-72.856 23.428-90.57q0-30.856-8.856-57.714t-20-43.714-31.428-34-32.856-24.856-34.856-20.286q-23.428-13.144-39.144-37.144t-15.714-38.286q0-9.714-6.858-18.572t-16-8.856h-137.144q-8.57 0-14.57 10.572t-6 21.428v25.714q0 47.428 37.142 89.428t81.714 62q33.714 15.428 48 32t14.286 43.428q0 24-26.572 42.286t-61.428 18.286q-37.144 0-61.714-16.572-20-14.286-61.144-65.714-7.43-9.142-17.714-9.142-6.856 0-14.286 4.572l-93.714 71.428q-7.43 5.714-8.856 14.286zM193.83 108.8v137.144q0 9.144 6.856 16t16 6.856h137.142q9.144 0 16-6.856t6.858-16v-137.144q0-9.144-6.858-16t-16-6.856h-137.144q-9.144 0-16 6.856t-6.856 16z" />
<glyph unicode="&#xf15c;" glyph-name="transcript" d="M0-5.486v914.286q0 22.856 16 38.856t38.856 16h457.144v-310.856q0-22.856 16-38.856t38.856-16h310.856v-603.428q0-22.856-16-38.856t-38.856-16h-768q-22.856 0-38.856 16t-16 38.856zM219.43 177.372q0-8 5.144-13.144t13.144-5.144h402.286q8 0 13.144 5.144t5.144 13.144v36.572q0 8-5.144 13.144t-13.144 5.144h-402.286q-8 0-13.144-5.144t-5.144-13.144v-36.572zM219.43 323.658q0-8 5.144-13.144t13.144-5.144h402.286q8 0 13.144 5.144t5.144 13.144v36.572q0 8-5.144 13.144t-13.144 5.144h-402.286q-8 0-13.144-5.144t-5.144-13.144v-36.572zM219.43 469.944q0-8 5.144-13.142t13.144-5.144h402.286q8 0 13.144 5.144t5.144 13.144v36.572q0 8-5.144 13.144t-13.144 5.142h-402.286q-8 0-13.144-5.142t-5.144-13.144v-36.572zM585.144 671.086v269.714q12.572-8 20.572-16l233.144-233.142q8-8 16-20.572h-269.714z" />
</font>
</defs>
</svg>
